Planet 51(2009)BLU-RAY 1080P

seeders: 0
leechers: 2
updated:
Added in Movies > Animation
Torrent verified. Downloaded 10 times.

Download Fast Safe Anonymous
movies, software, shows...
  • add Planet 51 to bookmarks
  • Release date: 14 November 2009
  • Writers: Javier Abad (original idea by), Jorge Blanco (original idea by), Marcos Martínez (original idea by), Ignacio Pérez Dolset (original idea by), Joe Stillman
  • Language: English
Summary:

American astronaut Captain Charles "Chuck" Baker lands on Planet 51 thinking he's the first person to step foot on it. To his surprise, he finds that this planet is inhabited by little green people who are happily living in a white picket fence world, and whose only fear is that it will be overrun by alien invaders...like Chuck!

Written by DeadShot10144.24K
Available in versions: 1080p720pBDRipHDRiPDVDRip
Planet 51(2009)BLU-RAY 1080P (Size: 6.56 GB)
  cbgb-planet51-1080r.mkv 6.56 GB
  Torrent_downloaded_from_Demonoid%2ecom[1].txt 47 bytes

Description

Lem is just an average teenager working on getting the girl and furthering his career at the local planetarium - except that he's an alien. At least to U.S. astronaut Captain Charles T. Baker who lands on Lem's planet hoping for a quick flag plant and a hasty return to earth and his millions of screaming fans. But on this alien planet the media has tagged spacemen as brain-eating, zombie-creating monsters, causing Baker to run for his life and into Lem's house. Now it's up to the green native to get the clumsy astronaut back to his spaceship before military dictator General Grawl and mad scientist Professor Kipple manage to exterminate the Earthly visitor.

http://www.imdb.com/title/tt0762125/
--------------------------------------------------------------------------------------------------
Video
ID : 1
Format : AVC
Format/Info : Advanced Video Codec
Format profile : [email protected]
Format settings, CABAC : Yes
Format settings, ReFrames : 3 frames
Muxing mode : Container [email protected]
Codec ID : V_MPEG4/ISO/AVC
Duration : 1h 30mn
Bit rate : 8 605 Kbps
Nominal bit rate : 8 808 Kbps
Width : 1 920 pixels
Height : 816 pixels
Display aspect ratio : 2.35:1
Frame rate : 23.976 fps
Resolution : 8 bits
Colorimetry : 4:2:0
Scan type : Progressive
Bits/(Pixel*Frame) : 0.229
Stream size : 5.47 GiB (83%)
Writing library : x264 core 85 r1442 781d300
Language : English

Audio
ID : 2
Format : DTS
Format/Info : Digital Theater Systems
Codec ID : A_DTS
Duration : 1h 31mn
Bit rate mode : Constant
Bit rate : 1 510 Kbps
Channel(s) : 6 channels
Channel positions : Front: L C R, Surround: L R, LFE
Sampling rate : 48.0 KHz
Resolution : 24 bits
Stream size : 983 MiB (15%)
Language : English


Screens

http://www.postimg.com/image/15000/14209.jpg

http://www.postimg.com/image/15000/14210.jpg

http://www.postimg.com/image/15000/14208.jpg


--------------------------------------------------------------------------------------------------

Related Torrents

torrent name size files age seed leech

Sharing Widget


Download torrent
6.56 GB
seeders:0
leechers:2
Planet 51(2009)BLU-RAY 1080P



To share this torrent use the code below and insert it into comments, status messages, forum posts or your signature.

Torrent: Planet 51(2009)BLU-RAY 1080P

Trackers

tracker name
udp://tracker.publicbt.com:80/announce
udp://tracker.openbittorrent.com:80/announce
udp://inferno.demonoid.com:3394/announce
http://tracker.openbittorrent.com/announce
http://tracker.publicbt.com/announce
http://inferno.demonoid.com:3394/announce
µTorrent compatible trackers list

Locations

name
ThePirateBay
SumoTorrent
SumoTorrent
Torrent hash: 44c88b74b39150c117b31efa60c1b3f3d63f3418

All Comments

audio
9/10
video
9/10
please, leave only comments related to that torrent
Sign In

audio: 10video: 10
BEATIFUL ANIMATION.
audio: 10video: 10
Thanks for sharing.
audio: 10video: 10
GREAT
Show More All
audio: 10video: 10
thanks good for telling me


User Opinions

pzlive2833, Dirley980, AudibleSilenz493, sidefirebird30267, hardal231, ChuckyB187, idontkno121, panamashotta91, brooksy50155, zooyork3787154 ... And 45 more